osu file format v14

[General]
AudioFilename: yuikonnu + Nano - Kokuhaku Biyori,desu!.mp3
AudioLeadIn: 1500
PreviewTime: 47540
Countdown: 0
SampleSet: Soft
StackLeniency: 0.7
Mode: 0
LetterboxInBreaks: 0
WidescreenStoryboard: 0

[Editor]
DistanceSpacing: 0.5
BeatDivisor: 4
GridSize: 8
TimelineZoom: 1.600002

[Metadata]
Title:Kokuhaku Biyori, desu!
TitleUnicode:告白日和、です!
Artist:yuikonnu & *Nano
ArtistUnicode:ゆいこんぬ&*菜乃
Creator:Synpoo
Version:Insane
Source:Love Live! School idol project
Tags:nico douga minami kotori koizumi hanayo
BeatmapID:769633
BeatmapSetID:348950

[Difficulty]
HPDrainRate:7
CircleSize:4
OverallDifficulty:8
ApproachRate:9
SliderMultiplier:1.7
SliderTickRate:1

[Events]
//Background and Video events
0,0,"erogevick.jpg",0,0
//Break Periods
2,75647,77114
//Storyboard Layer 0 (Background)
//Storyboard Layer 1 (Fail)
//Storyboard Layer 2 (Pass)
//Storyboard Layer 3 (Foreground)
//Storyboard Sound Samples

[TimingPoints]
1494,348.837209302326,4,2,1,50,1,0
1494,-133.333333333333,4,2,1,50,0,0
6726,-133.333333333333,4,2,1,70,0,0
7075,-100,4,2,1,70,0,0
34982,-125,4,2,1,70,0,0
40563,-100,4,2,1,70,0,0
47540,-90.9090909090909,4,2,1,70,0,1
57307,-90.9090909090909,4,2,1,70,0,0
58703,-90.9090909090909,4,2,1,80,0,1
69866,-100,4,2,1,70,0,0
74924,-133.333333333333,4,2,1,50,0,0
75447,-133.333333333333,4,2,1,20,0,0
77714,-133.333333333333,4,2,1,70,0,0
78761,-133.333333333333,4,3,1,70,0,0
79633,-133.333333333333,4,2,1,70,0,0
80505,-133.333333333333,4,3,1,70,0,0
80854,-133.333333333333,4,2,1,70,0,0
81028,-133.333333333333,4,2,1,40,0,0
83819,-133.333333333333,4,2,1,50,0,0
85912,-100,4,2,1,70,0,0
97773,-125,4,2,1,60,0,0
103354,-100,4,2,1,70,0,0
110331,-90.9090909090909,4,2,1,80,0,1
120098,-90.9090909090909,4,2,1,70,0,0
121494,-90.9090909090909,4,2,1,80,0,1
132656,-100,4,2,1,70,0,0
148877,-125,4,2,1,60,0,0
154982,-100,4,2,1,70,0,0
161959,-100,4,2,1,40,0,0
162133,-100,4,2,1,50,0,0
162307,-100,4,2,1,60,0,0
162482,-100,4,2,1,70,0,0
163354,-90.9090909090909,4,2,1,80,0,1
173121,-90.9090909090909,4,2,1,70,0,0
174517,-90.9090909090909,4,2,1,80,0,1
184284,-100,4,2,1,70,0,0
205040,-133.333333333333,4,2,1,70,0,0
209400,-133.333333333333,4,2,1,55,0,0
210796,-133.333333333333,4,2,1,40,0,0

[Colours]
Combo1 : 231,121,247
Combo2 : 237,201,54
Combo3 : 113,101,214
Combo4 : 221,89,66

[HitObjects]
215,79,1494,6,0,B|160:90|129:150|153:208|199:228,1,191.250007295609,2|0,0:0|0:0,0:0:0:0:
285,206,2191,2,0,L|360:193,1,63.7500024318696,,,0:0:0:0:
410,288,2540,2,0,L|320:281,1,63.7500024318696,,,0:0:0:0:
194,324,2889,6,0,L|180:185,1,127.500004863739,2|0,0:0|0:0,0:0:0:0:
71,66,3587,2,0,L|141:48,1,63.7500024318696,,,0:0:0:0:
127,134,3935,2,0,L|197:116,1,63.7500024318696,,,0:0:0:0:
83,240,4284,6,0,B|123:218|169:223|202:248,1,127.500004863739,2|0,0:0|0:0,0:0:0:0:
331,367,4982,2,0,L|326:299,1,63.7500024318696,,,0:0:0:0:
410,317,5331,2,0,L|405:249,1,63.7500024318696,,,0:0:0:0:
380,101,5680,6,0,L|224:118,1,127.500004863739,2|0,0:0|0:0,0:0:0:0:
127,214,6377,1,0,0:0:0:0:
235,267,6552,1,0,0:0:0:0:
235,267,6639,1,0,0:0:0:0:
235,267,6726,2,0,L|319:257,1,63.7500024318696,8|0,0:0|0:0,0:0:0:0:
141,384,7075,6,0,L|126:190,1,170,4|8,0:0|0:0,0:0:0:0:
107,114,7598,1,0,0:0:0:0:
225,223,7773,1,0,0:0:0:0:
334,103,7947,1,0,0:0:0:0:
329,294,8121,1,8,0:0:0:0:
484,164,8296,6,0,L|313:179,1,170,4|0,0:0|0:0,0:0:0:0:
230,150,8819,1,8,0:0:0:0:
179,322,8994,2,0,L|273:316,1,85,,,0:0:0:0:
370,239,9342,1,0,0:0:0:0:
230,150,9517,1,8,0:0:0:0:
348,52,9691,1,0,0:0:0:0:
127,22,9866,6,0,L|134:136,1,85,4|0,0:0|0:0,0:0:0:0:
87,256,10214,2,0,L|185:246,1,85,8|0,0:0|0:0,0:0:0:0:
300,219,10563,1,0,0:0:0:0:
209,332,10738,1,0,0:0:0:0:
216,148,10912,2,0,L|204:39,1,85,8|0,0:0|0:0,0:0:0:0:
204,33,11174,1,8,0:0:0:0:
204,33,11261,5,12,0:0:0:0:
109,155,11435,1,0,0:0:0:0:
109,155,11523,1,0,0:0:0:0:
109,155,11610,1,8,0:0:0:0:
300,219,11784,1,4,0:0:0:0:
300,219,12133,5,0,0:0:0:0:
207,308,12307,1,8,0:0:0:0:
110,185,12482,1,0,0:0:0:0:
0,320,12656,5,4,0:0:0:0:
0,320,13005,1,8,0:0:0:0:
124,326,13180,2,0,B|155:327|183:320|208:306,1,85,,,0:0:0:0:
300,219,13528,1,0,0:0:0:0:
369,335,13703,1,8,0:0:0:0:
435,248,13877,1,0,0:0:0:0:
224,240,14052,6,0,L|55:246,1,170,0|8,0:0|0:0,0:0:0:0:
161,165,14575,2,0,L|253:162,1,85,,,0:0:0:0:
367,171,14924,1,0,0:0:0:0:
229,287,15098,1,8,0:0:0:0:
161,165,15273,1,0,0:0:0:0:
67,308,15447,5,0,0:0:0:0:
67,308,15796,1,8,0:0:0:0:
51,172,15970,2,0,L|39:81,1,85,,,0:0:0:0:
165,21,16319,1,0,0:0:0:0:
155,189,16494,1,8,0:0:0:0:
272,143,16668,1,0,0:0:0:0:
337,310,16842,6,0,B|290:321|244:318,1,85,,,0:0:0:0:
155,189,17191,1,8,0:0:0:0:
369,224,17366,2,0,B|323:239|277:241,1,85,,,0:0:0:0:
155,189,17714,1,0,0:0:0:0:
51,350,17889,1,8,0:0:0:0:
0,223,18063,1,0,0:0:0:0:
51,350,18238,6,0,L|138:334,1,85,4|0,0:0|0:0,0:0:0:0:
294,286,18587,1,8,0:0:0:0:
155,189,18761,1,0,0:0:0:0:
281,75,18935,2,0,L|280:164,1,85,,,0:0:0:0:
258,286,19284,1,8,0:0:0:0:
116,190,19459,1,0,0:0:0:0:
47,380,19633,6,0,L|138:371,1,85,4|0,0:0|0:0,0:0:0:0:
231,286,19982,1,8,0:0:0:0:
83,190,20156,2,0,B|39:166|21:113|41:65|78:42,1,170,4|0,0:0|0:0,0:0:0:0:
223,115,20680,2,0,L|114:112,1,85,8|0,0:0|0:0,0:0:0:0:
66,293,21028,6,0,L|163:282,1,85,4|0,0:0|0:0,0:0:0:0:
267,210,21377,1,8,0:0:0:0:
378,335,21552,2,0,L|261:327,1,85,,,0:0:0:0:
176,357,21900,1,0,0:0:0:0:
219,147,22075,1,8,0:0:0:0:
328,254,22249,1,8,0:0:0:0:
328,254,22337,1,8,0:0:0:0:
328,254,22424,5,4,0:0:0:0:
142,201,22598,1,0,0:0:0:0:
142,201,22685,1,0,0:0:0:0:
142,201,22773,1,8,0:0:0:0:
279,65,22947,1,4,0:0:0:0:
279,65,23296,5,0,0:0:0:0:
225,186,23470,1,8,0:0:0:0:
119,111,23645,1,0,0:0:0:0:
60,268,23819,6,0,B|88:314|143:332|194:314|223:278,1,170,4|8,0:0|0:0,0:0:0:0:
336,193,24342,2,0,L|343:294,1,85,,,0:0:0:0:
344,384,24691,1,0,0:0:0:0:
244,221,24866,1,8,0:0:0:0:
420,242,25040,1,0,0:0:0:0:
159,198,25214,6,0,L|37:191,1,85,,,0:0:0:0:
12,84,25563,1,8,0:0:0:0:
0,279,25738,2,0,L|114:271,1,85,,,0:0:0:0:
244,221,26087,1,0,0:0:0:0:
163,338,26261,1,8,0:0:0:0:
132,174,26435,1,0,0:0:0:0:
304,280,26610,5,2,0:0:0:0:
304,280,26959,1,8,0:0:0:0:
162,381,27133,2,0,L|163:294,1,85,,,0:0:0:0:
176,153,27482,1,0,0:0:0:0:
54,226,27656,1,8,0:0:0:0:
18,118,27831,1,0,0:0:0:0:
2,331,28005,6,0,B|48:331|91:320,1,85,2|0,0:0|0:0,0:0:0:0:
176,153,28354,1,8,0:0:0:0:
251,373,28528,2,0,B|205:374|161:367,1,85,2|0,0:0|0:0,0:0:0:0:
154,184,28877,1,0,0:0:0:0:
288,255,29052,1,8,0:0:0:0:
123,216,29226,1,0,0:0:0:0:
326,240,29400,5,4,0:0:0:0:
326,240,29749,1,8,0:0:0:0:
406,143,29924,1,0,0:0:0:0:
236,29,30098,2,0,L|246:122,1,85,,,0:0:0:0:
216,245,30447,1,8,0:0:0:0:
369,239,30621,1,0,0:0:0:0:
145,318,30796,6,0,B|107:281|101:225|126:180|165:157,1,170,0|8,0:0|0:0,0:0:0:0:
281,93,31319,1,0,0:0:0:0:
300,262,31494,2,0,L|198:242,1,85,,,0:0:0:0:
146,141,31842,1,8,0:0:0:0:
146,141,31930,1,8,0:0:0:0:
146,141,32017,1,0,0:0:0:0:
171,321,32191,5,4,0:0:0:0:
298,225,32366,1,0,0:0:0:0:
146,141,32540,1,8,0:0:0:0:
296,55,32714,1,0,0:0:0:0:
296,55,33063,1,0,0:0:0:0:
369,182,33238,1,8,0:0:0:0:
164,234,33412,6,0,B|128:237|94:223|71:199,1,85,4|0,0:0|0:0,0:0:0:0:
20,131,33761,1,0,0:0:0:0:
119,22,33935,1,8,0:0:0:0:
197,155,34110,1,0,0:0:0:0:
282,69,34284,1,8,0:0:0:0:
296,55,34371,1,8,0:0:0:0:
309,37,34459,1,0,0:0:0:0:
369,182,34633,1,0,0:0:0:0:
464,51,34807,1,8,0:0:0:0:
479,32,34895,1,8,0:0:0:0:
489,5,34982,6,0,L|483:156,1,136,4|0,0:0|0:0,0:0:0:0:
402,286,35505,1,0,0:0:0:0:
402,286,35680,2,0,L|322:272,1,68,8|0,0:0|0:0,0:0:0:0:
255,217,36028,1,0,0:0:0:0:
346,178,36203,1,0,0:0:0:0:
258,370,36377,6,0,B|304:347|354:345|398:361,1,136,,,0:0:0:0:
390,358,36900,1,0,0:0:0:0:
346,178,37075,1,8,0:0:0:0:
271,200,37249,1,0,0:0:0:0:
196,223,37424,1,0,0:0:0:0:
123,250,37598,1,0,0:0:0:0:
49,276,37773,5,0,0:0:0:0:
174,13,38121,2,0,L|183:80,1,68,,,0:0:0:0:
151,156,38470,2,0,B|188:118|242:108|287:126,1,136,8|0,0:0|0:0,0:0:0:0:
276,122,38994,1,0,0:0:0:0:
389,273,39168,6,0,L|301:265,1,68,,,0:0:0:0:
238,360,39517,2,0,L|319:354,1,68,,,0:0:0:0:
245,266,39866,1,8,0:0:0:0:
236,233,39953,1,0,0:0:0:0:
230,199,40040,1,0,0:0:0:0:
221,166,40127,1,0,0:0:0:0:
213,133,40214,1,8,0:0:0:0:
338,154,40389,1,0,0:0:0:0:
362,340,40563,6,0,L|270:329,1,85,4|0,0:0|0:0,0:0:0:0:
419,139,40912,2,0,L|503:149,1,85,8|0,0:0|0:0,0:0:0:0:
385,258,41261,1,0,0:0:0:0:
318,124,41435,1,0,0:0:0:0:
153,292,41610,2,0,B|203:290|250:278,1,85,8|0,0:0|0:0,0:0:0:0:
75,161,41959,6,0,B|42:197|28:244,1,85,,,0:0:0:0:
224,65,42307,2,0,B|179:48|132:54,1,85,8|0,0:0|0:0,0:0:0:0:
0,122,42656,1,0,0:0:0:0:
143,204,42831,1,0,0:0:0:0:
312,39,43005,2,0,L|318:138,1,85,8|0,0:0|0:0,0:0:0:0:
360,263,43354,6,0,B|313:264|268:253,1,85,,,0:0:0:0:
93,360,43703,2,0,B|140:361|185:350,1,85,8|0,0:0|0:0,0:0:0:0:
288,148,44052,1,8,0:0:0:0:
251,324,44226,1,0,0:0:0:0:
232,86,44400,1,8,0:0:0:0:
269,247,44575,1,0,0:0:0:0:
388,114,44749,5,8,0:0:0:0:
167,188,44924,1,0,0:0:0:0:
479,184,45098,1,8,0:0:0:0:
269,247,45273,1,0,0:0:0:0:
323,36,45447,1,8,0:0:0:0:
371,197,45621,1,0,0:0:0:0:
371,197,45709,1,8,0:0:0:0:
371,197,45796,1,8,0:0:0:0:
209,191,45970,2,0,L|153:186,1,42.5,8|8,0:0|0:0,0:0:0:0:
67,164,46145,5,4,0:0:0:0:
147,46,46319,1,0,0:0:0:0:
147,46,46406,1,8,0:0:0:0:
147,46,46494,1,8,0:0:0:0:
277,149,46668,1,0,0:0:0:0:
145,378,47017,5,0,0:0:0:0:
232,257,47191,1,8,0:0:0:0:
269,247,47278,1,0,0:0:0:0:
306,255,47366,1,0,0:0:0:0:
338,275,47453,1,0,0:0:0:0:
359,306,47540,6,0,B|406:339|469:330|508:286|513:236,1,187.000005706787,4|8,0:0|0:0,0:0:0:0:
307,149,48063,1,0,0:0:0:0:
416,222,48238,1,0,0:0:0:0:
423,65,48412,1,0,0:0:0:0:
416,222,48587,1,8,0:0:0:0:
234,115,48761,1,0,0:0:0:0:
216,339,48935,6,0,B|171:378|100:366|67:307|81:255,1,187.000005706787,0|8,0:0|0:0,0:0:0:0:
102,115,49459,1,0,0:0:0:0:
164,275,49633,1,0,0:0:0:0:
249,133,49807,1,0,0:0:0:0:
42,160,49982,1,8,0:0:0:0:
135,12,50156,1,0,0:0:0:0:
196,204,50331,6,0,B|242:246|319:232|350:165|329:112,1,187.000005706787,0|8,0:0|0:0,0:0:0:0:
280,5,50854,1,0,0:0:0:0:
435,140,51028,1,0,0:0:0:0:
249,133,51203,1,0,0:0:0:0:
453,57,51377,1,8,0:0:0:0:
418,221,51552,1,0,0:0:0:0:
158,87,51726,6,0,L|165:188,1,93.5000028533936,4|0,0:0|0:0,0:0:0:0:
186,315,52075,1,8,0:0:0:0:
418,221,52249,1,4,0:0:0:0:
418,221,52598,1,0,0:0:0:0:
314,105,52773,1,8,0:0:0:0:
264,278,52947,1,0,0:0:0:0:
120,194,53121,6,0,B|66:178|11:184,1,93.5000028533936,,,0:0:0:0:
211,130,53470,2,0,B|163:100|107:93,1,93.5000028533936,8|0,0:0|0:0,0:0:0:0:
392,194,53819,2,0,B|446:178|501:184,1,93.5000028533936,,,0:0:0:0:
301,130,54168,2,0,B|349:100|404:93,1,93.5000028533936,8|0,0:0|0:0,0:0:0:0:
276,237,54517,5,4,0:0:0:0:
198,110,54691,1,0,0:0:0:0:
293,318,54866,1,8,0:0:0:0:
301,130,55040,1,4,0:0:0:0:
301,130,55389,2,0,L|418:113,1,93.5000028533936,0|8,0:0|0:0,0:0:0:0:
511,101,55738,1,0,0:0:0:0:
359,268,55912,5,4,0:0:0:0:
205,134,56087,1,0,0:0:0:0:
293,318,56261,1,8,0:0:0:0:
290,157,56435,1,0,0:0:0:0:
136,324,56610,2,0,L|128:210,1,93.5000028533936,,,0:0:0:0:
356,85,56959,2,0,L|362:178,1,93.5000028533936,8|0,0:0|0:0,0:0:0:0:
263,377,57307,6,0,L|250:189,1,187.000005706787,4|8,0:0|0:0,0:0:0:0:
296,71,57831,1,0,0:0:0:0:
327,79,57918,1,0,0:0:0:0:
355,85,58005,6,0,L|401:93,1,46.7500014266968,,,0:0:0:0:
394,219,58180,2,0,L|348:211,1,46.7500014266968,,,0:0:0:0:
244,147,58354,1,8,0:0:0:0:
206,127,58441,1,0,0:0:0:0:
164,130,58528,1,0,0:0:0:0:
127,150,58616,1,0,0:0:0:0:
102,183,58703,6,0,B|140:139|128:68|69:37|18:50,1,187.000005706787,4|8,0:0|0:0,0:0:0:0:
60,252,59226,1,0,0:0:0:0:
218,90,59400,1,0,0:0:0:0:
35,134,59575,1,0,0:0:0:0:
260,160,59749,1,8,0:0:0:0:
112,61,59924,1,0,0:0:0:0:
131,297,60098,6,0,B|231:319|330:326,1,187.000005706787,0|8,0:0|0:0,0:0:0:0:
367,166,60621,1,0,0:0:0:0:
239,290,60796,1,0,0:0:0:0:
167,161,60970,1,0,0:0:0:0:
337,245,61145,1,8,0:0:0:0:
208,313,61319,1,0,0:0:0:0:
332,96,61494,6,0,B|385:64|460:98|465:179|419:217,1,187.000005706787,0|8,0:0|0:0,0:0:0:0:
364,333,62017,1,0,0:0:0:0:
367,166,62191,1,0,0:0:0:0:
364,333,62366,1,0,0:0:0:0:
249,157,62540,1,8,0:0:0:0:
437,118,62714,1,0,0:0:0:0:
227,272,62889,6,0,B|115:264|6:271,1,187.000005706787,4|8,0:0|0:0,0:0:0:0:
125,379,63412,1,0,0:0:0:0:
198,172,63587,2,0,B|268:179|338:182,1,93.5000028533936,,,0:0:0:0:
442,275,63935,1,8,0:0:0:0:
442,275,64023,1,0,0:0:0:0:
442,275,64110,1,0,0:0:0:0:
496,130,64284,5,4,0:0:0:0:
496,130,64633,2,0,B|458:116|418:114|382:122,1,93.5000028533936,8|0,0:0|0:0,0:0:0:0:
291,179,64982,1,0,0:0:0:0:
350,64,65156,1,0,0:0:0:0:
436,213,65331,2,0,B|443:248|435:282|418:309,1,93.5000028533936,8|0,0:0|0:0,0:0:0:0:
241,379,65680,6,0,B|208:320|204:252|225:194,1,187.000005706787,4|8,0:0|0:0,0:0:0:0:
337,231,66203,1,0,0:0:0:0:
241,379,66377,1,0,0:0:0:0:
381,334,66552,1,0,0:0:0:0:
206,240,66726,2,0,B|147:242|93:261,1,93.5000028533936,8|0,0:0|0:0,0:0:0:0:
392,174,67075,6,0,B|446:158|501:164,1,93.5000028533936,4|0,0:0|0:0,0:0:0:0:
301,110,67424,2,0,B|349:80|405:73,1,93.5000028533936,8|0,0:0|0:0,0:0:0:0:
120,174,67773,2,0,B|66:158|11:164,1,93.5000028533936,,,0:0:0:0:
211,110,68122,2,0,B|163:80|108:73,1,93.5000028533936,8|8,0:0|0:0,0:0:0:0:
93,68,68383,1,8,0:0:0:0:
93,68,68470,5,4,0:0:0:0:
240,19,68645,1,0,0:0:0:0:
141,208,68819,2,0,B|189:225|239:220,1,93.5000028533936,4|8,0:0|0:0,0:0:0:0:
265,218,69081,1,8,0:0:0:0:
265,218,69168,1,0,0:0:0:0:
123,81,69342,1,0,0:0:0:0:
177,291,69517,1,8,0:0:0:0:
284,121,69691,1,8,0:0:0:0:
329,100,69778,1,8,0:0:0:0:
373,110,69866,6,0,B|406:149|464:153|505:119|515:75,1,170,4|8,0:0|0:0,0:0:0:0:
312,22,70389,1,0,0:0:0:0:
312,22,70476,1,8,0:0:0:0:
312,22,70563,1,0,0:0:0:0:
371,212,70738,1,0,0:0:0:0:
435,53,70912,1,8,0:0:0:0:
224,84,71087,1,0,0:0:0:0:
224,84,71435,5,0,0:0:0:0:
321,264,71610,2,0,B|282:278|242:275|208:260,1,85,8|0,0:0|0:0,0:0:0:0:
206,259,71871,1,8,0:0:0:0:
179,244,71959,1,0,0:0:0:0:
91,318,72133,1,0,0:0:0:0:
28,126,72307,2,0,B|62:108|100:108|132:121,1,85,8|0,0:0|0:0,0:0:0:0:
211,158,72569,1,0,0:0:0:0:
236,182,72656,6,0,B|280:203|331:192|364:158|374:117,1,170,4|8,0:0|0:0,0:0:0:0:
386,13,73180,1,0,0:0:0:0:
460,176,73354,2,0,B|465:229|469:282,1,85,,,0:0:0:0:
485,76,73703,1,8,0:0:0:0:
340,238,73877,6,0,B|231:242,1,85,4|0,0:0|0:0,0:0:0:0:
131,117,74226,1,0,0:0:0:0:
194,310,74400,1,0,0:0:0:0:
194,310,74749,1,8,0:0:0:0:
51,195,74924,6,0,B|160:188|267:188,1,191.250007295609,,,0:0:0:0:
244,75,77714,5,0,0:0:0:0:
366,173,77889,1,8,0:0:0:0:
248,249,78063,1,8,0:0:0:0:
237,278,78150,1,8,0:0:0:0:
225,308,78238,1,8,0:0:0:0:
283,150,78412,1,0,0:0:0:0:
283,150,78761,6,0,B|238:174|187:175|144:156,1,127.500004863739,0|8,0:0|0:0,0:0:0:0:
159,161,79197,1,8,0:0:0:0:
159,161,79284,1,0,0:0:0:0:
62,110,79459,1,0,0:0:0:0:
154,253,79633,1,2,0:0:0:0:
205,47,79807,1,2,0:0:0:0:
256,188,79982,1,8,0:0:0:0:
49,141,80156,6,0,B|66:216|77:291,1,127.500004863739,4|8,0:0|0:0,0:0:0:0:
45,368,80680,1,8,0:0:0:0:
154,253,80854,1,8,0:0:0:0:
336,371,81028,6,0,L|258:363,1,63.7500024318696,4|0,0:0|0:0,0:0:0:0:
258,242,81377,2,0,L|189:249,1,63.7500024318696,,,0:0:0:0:
154,253,81639,1,0,0:0:0:0:
154,253,81726,1,8,0:0:0:0:
63,318,81900,1,0,0:0:0:0:
14,167,82075,1,0,0:0:0:0:
63,318,82249,1,8,0:0:0:0:
189,143,82424,5,4,0:0:0:0:
154,253,82598,1,8,0:0:0:0:
14,167,82773,1,8,0:0:0:0:
91,348,82947,2,0,B|170:347|241:317,1,127.500004863739,4|0,0:0|0:0,0:0:0:0:
245,317,83383,1,8,0:0:0:0:
278,306,83470,1,8,0:0:0:0:
403,58,83819,6,0,B|412:133|415:208,1,127.500004863739,4|0,0:0|0:0,0:0:0:0:
414,184,84342,1,0,0:0:0:0:
314,297,84517,1,0,0:0:0:0:
473,240,84691,1,0,0:0:0:0:
328,131,84866,1,0,0:0:0:0:
397,324,85040,1,0,0:0:0:0:
397,324,85389,5,8,0:0:0:0:
328,131,85563,1,0,0:0:0:0:
251,217,85912,5,8,0:0:0:0:
216,241,85999,1,0,0:0:0:0:
173,246,86087,1,0,0:0:0:0:
131,240,86174,1,0,0:0:0:0:
93,220,86261,1,8,0:0:0:0:
61,191,86348,1,0,0:0:0:0:
32,159,86435,6,0,B|44:251|50:342,1,170,4|0,0:0|0:0,0:0:0:0:
49,328,86959,1,8,0:0:0:0:
165,152,87133,2,0,B|193:129|227:119|260:123,1,85,,,0:0:0:0:
359,168,87482,1,0,0:0:0:0:
257,274,87656,1,8,0:0:0:0:
396,278,87831,1,0,0:0:0:0:
232,352,88005,6,0,B|181:335|155:277|177:224|219:201,1,170,0|8,0:0|0:0,0:0:0:0:
359,168,88528,2,0,B|391:187|403:227|390:259,1,85,,,0:0:0:0:
325,327,88877,1,0,0:0:0:0:
491,280,89052,1,8,0:0:0:0:
359,168,89226,1,0,0:0:0:0:
506,89,89400,5,2,0:0:0:0:
506,89,89749,1,8,0:0:0:0:
359,168,89924,2,0,L|353:81,1,85,,,0:0:0:0:
409,250,90273,1,0,0:0:0:0:
273,141,90447,1,8,0:0:0:0:
421,45,90621,1,0,0:0:0:0:
409,250,90796,6,0,B|371:267|330:262|298:242,1,85,2|0,0:0|0:0,0:0:0:0:
269,102,91145,1,8,0:0:0:0:
480,203,91319,2,0,B|499:232|499:268|483:297,1,85,2|0,0:0|0:0,0:0:0:0:
378,364,91668,1,0,0:0:0:0:
336,175,91842,1,8,0:0:0:0:
260,300,92017,1,0,0:0:0:0:
159,130,92191,6,0,B|107:151|83:211|105:266|148:291,1,170,4|8,0:0|0:0,0:0:0:0:
183,368,92714,1,0,0:0:0:0:
321,248,92889,2,0,B|294:227|261:220|231:225,1,85,,,0:0:0:0:
13,201,93238,2,0,B|39:180|72:173|102:178,1,85,8|0,0:0|0:0,0:0:0:0:
260,329,93587,6,0,B|313:362|381:343|411:291,1,170,0|8,0:0|0:0,0:0:0:0:
324,156,94110,1,0,0:0:0:0:
125,247,94284,2,0,B|161:240|196:256|215:284,1,85,,,0:0:0:0:
338,381,94633,1,8,0:0:0:0:
338,381,94720,1,8,0:0:0:0:
338,381,94807,1,0,0:0:0:0:
395,196,94982,6,0,L|398:20,1,170,4|8,0:0|0:0,0:0:0:0:
320,277,95505,2,0,B|290:256|254:250|221:256,1,85,,,0:0:0:0:
250,147,95854,2,0,B|213:141|178:153|152:174,1,85,0|8,0:0|0:0,0:0:0:0:
79,311,96203,5,4,0:0:0:0:
79,311,96552,1,0,0:0:0:0:
72,219,96726,1,8,0:0:0:0:
160,355,96900,1,0,0:0:0:0:
195,159,97075,1,8,0:0:0:0:
220,149,97162,1,8,0:0:0:0:
250,147,97249,1,8,0:0:0:0:
259,384,97424,1,0,0:0:0:0:
347,137,97598,1,8,0:0:0:0:
390,141,97685,1,8,0:0:0:0:
443,156,97773,5,4,0:0:0:0:
72,219,98121,2,0,L|80:139,1,68,,,0:0:0:0:
111,66,98470,2,0,B|128:144|165:212,1,136,8|0,0:0|0:0,0:0:0:0:
232,104,98994,1,0,0:0:0:0:
347,137,99168,6,0,B|330:59|293:-9,1,136,,,0:0:0:0:
302,8,99691,1,0,0:0:0:0:
201,173,99866,1,8,0:0:0:0:
274,197,100040,1,0,0:0:0:0:
349,221,100214,1,0,0:0:0:0:
421,248,100389,1,0,0:0:0:0:
493,274,100563,5,0,0:0:0:0:
212,374,100912,2,0,L|215:296,1,68,,,0:0:0:0:
275,246,101261,2,0,B|224:266|170:252|134:219,1,136,8|0,0:0|0:0,0:0:0:0:
145,228,101784,1,0,0:0:0:0:
262,87,101959,6,0,L|272:169,1,68,,,0:0:0:0:
367,217,102307,2,0,L|368:129,1,68,,,0:0:0:0:
275,246,102656,1,8,0:0:0:0:
240,241,102744,1,0,0:0:0:0:
206,237,102831,1,0,0:0:0:0:
172,233,102918,1,0,0:0:0:0:
138,228,103005,1,8,0:0:0:0:
146,339,103180,1,0,0:0:0:0:
372,321,103354,5,4,0:0:0:0:
299,246,103528,1,0,0:0:0:0:
457,167,103703,1,8,0:0:0:0:
320,94,103877,1,0,0:0:0:0:
405,249,104052,5,0,0:0:0:0:
239,158,104226,1,0,0:0:0:0:
267,324,104400,1,8,0:0:0:0:
489,243,104575,1,0,0:0:0:0:
320,94,104749,5,0,0:0:0:0:
299,246,104924,1,0,0:0:0:0:
128,85,105098,1,8,0:0:0:0:
116,290,105273,1,0,0:0:0:0:
384,167,105447,5,0,0:0:0:0:
150,182,105621,1,0,0:0:0:0:
350,338,105796,1,8,0:0:0:0:
320,94,105970,1,0,0:0:0:0:
55,236,106145,6,0,B|68:272|102:292|137:291,1,85,4|0,0:0|0:0,0:0:0:0:
399,74,106494,2,0,B|386:38|351:17|316:18,1,85,8|0,0:0|0:0,0:0:0:0:
93,111,106842,2,0,B|55:115|27:144|21:179,1,85,8|0,0:0|0:0,0:0:0:0:
291,273,107191,2,0,B|328:267|356:238|362:204,1,85,8|0,0:0|0:0,0:0:0:0:
174,51,107540,5,8,0:0:0:0:
170,245,107714,1,0,0:0:0:0:
285,96,107889,1,8,0:0:0:0:
62,85,108063,1,0,0:0:0:0:
274,200,108238,1,8,0:0:0:0:
66,184,108412,5,0,0:0:0:0:
52,224,108499,1,0,0:0:0:0:
55,266,108587,1,0,0:0:0:0:
75,303,108674,1,0,0:0:0:0:
103,334,108761,1,0,0:0:0:0:
142,350,108848,1,0,0:0:0:0:
184,350,108935,6,0,B|222:354|255:324|256:286,1,85,12|0,0:0|0:0,0:0:0:0:
266,273,109197,1,0,0:0:0:0:
266,273,109284,1,8,0:0:0:0:
161,228,109459,1,0,0:0:0:0:
237,64,109807,5,0,0:0:0:0:
354,222,109982,1,8,0:0:0:0:
371,245,110069,1,0,0:0:0:0:
386,270,110156,1,0,0:0:0:0:
405,293,110244,1,0,0:0:0:0:
426,317,110331,6,0,L|439:130,1,187.000005706787,4|8,0:0|0:0,0:0:0:0:
402,16,110854,1,0,0:0:0:0:
237,64,111028,1,0,0:0:0:0:
338,158,111203,1,0,0:0:0:0:
157,84,111377,1,8,0:0:0:0:
303,6,111552,1,0,0:0:0:0:
276,244,111726,6,0,B|310:286|370:295|417:266|437:224,1,187.000005706787,0|8,0:0|0:0,0:0:0:0:
458,106,112249,1,0,0:0:0:0:
489,311,112424,1,0,0:0:0:0:
351,186,112598,1,0,0:0:0:0:
281,378,112773,1,8,0:0:0:0:
397,268,112947,1,0,0:0:0:0:
187,263,113121,6,0,B|143:233|132:172|164:126|209:112,1,187.000005706787,0|8,0:0|0:0,0:0:0:0:
351,186,113645,1,0,0:0:0:0:
227,16,113819,1,0,0:0:0:0:
233,193,113994,1,0,0:0:0:0:
448,152,114168,1,8,0:0:0:0:
301,94,114342,1,0,0:0:0:0:
400,311,114517,6,0,L|277:299,1,93.5000028533936,4|0,0:0|0:0,0:0:0:0:
168,263,114866,1,8,0:0:0:0:
301,94,115040,1,4,0:0:0:0:
301,94,115389,1,0,0:0:0:0:
233,192,115563,1,8,0:0:0:0:
138,32,115738,1,0,0:0:0:0:
90,174,115912,6,0,B|62:221|18:252,1,93.5000028533936,,,0:0:0:0:
168,263,116261,2,0,B|156:316|123:359,1,93.5000028533936,8|0,0:0|0:0,0:0:0:0:
422,174,116610,2,0,B|450:221|494:252,1,93.5000028533936,,,0:0:0:0:
344,263,116959,2,0,B|355:316|388:359,1,93.5000028533936,8|0,0:0|0:0,0:0:0:0:
192,105,117307,5,4,0:0:0:0:
315,164,117482,1,0,0:0:0:0:
168,263,117656,1,8,0:0:0:0:
344,263,117831,1,4,0:0:0:0:
344,263,118180,2,0,L|448:254,1,93.5000028533936,0|8,0:0|0:0,0:0:0:0:
512,153,118528,1,0,0:0:0:0:
361,72,118703,5,4,0:0:0:0:
258,223,118877,1,0,0:0:0:0:
294,17,119052,1,8,0:0:0:0:
315,164,119226,1,0,0:0:0:0:
154,77,119400,2,0,L|58:82,1,93.5000028533936,,,0:0:0:0:
215,301,119749,2,0,L|327:293,1,93.5000028533936,8|0,0:0|0:0,0:0:0:0:
315,164,120098,6,0,L|122:173,1,187.000005706787,4|8,0:0|0:0,0:0:0:0:
89,57,120621,1,0,0:0:0:0:
121,72,120709,1,0,0:0:0:0:
154,77,120796,6,0,L|202:74,1,46.7500014266968,,,0:0:0:0:
256,167,120970,2,0,L|209:169,1,46.7500014266968,,,0:0:0:0:
93,173,121145,1,8,0:0:0:0:
55,200,121232,1,0,0:0:0:0:
37,243,121319,1,0,0:0:0:0:
40,289,121406,1,0,0:0:0:0:
65,329,121494,6,0,B|160:333|253:349,1,187.000005706787,4|8,0:0|0:0,0:0:0:0:
401,373,122017,1,0,0:0:0:0:
370,182,122191,1,0,0:0:0:0:
226,267,122366,1,0,0:0:0:0:
211,64,122540,1,8,0:0:0:0:
254,188,122714,1,0,0:0:0:0:
35,158,122889,6,0,B|0:200|9:265|58:299|107:294,1,187.000005706787,0|8,0:0|0:0,0:0:0:0:
226,267,123412,1,0,0:0:0:0:
35,158,123587,1,0,0:0:0:0:
195,134,123761,1,0,0:0:0:0:
97,294,123935,1,8,0:0:0:0:
110,112,124110,1,0,0:0:0:0:
177,341,124284,6,0,B|225:373|290:357|321:304|312:253,1,187.000005706787,0|8,0:0|0:0,0:0:0:0:
297,131,124807,1,0,0:0:0:0:
407,321,124982,1,0,0:0:0:0:
226,267,125156,1,0,0:0:0:0:
381,108,125331,1,8,0:0:0:0:
340,242,125505,1,0,0:0:0:0:
122,59,125680,6,0,B|82:119|87:194|128:247,1,187.000005706787,4|8,0:0|0:0,0:0:0:0:
191,346,126203,1,0,0:0:0:0:
340,242,126377,2,0,B|300:226|259:230|224:247,1,93.5000028533936,,,0:0:0:0:
72,317,126726,1,8,0:0:0:0:
72,317,126813,1,0,0:0:0:0:
72,317,126900,1,0,0:0:0:0:
54,143,127075,5,4,0:0:0:0:
54,143,127424,2,0,B|43:176|48:210|63:238,1,93.5000028533936,8|0,0:0|0:0,0:0:0:0:
177,88,127773,1,0,0:0:0:0:
10,52,127947,1,0,0:0:0:0:
159,180,128121,2,0,B|194:186|228:172|250:148,1,93.5000028533936,8|0,0:0|0:0,0:0:0:0:
407,37,128470,6,0,L|411:194,1,140.25000428009,4|0,0:0|0:0,0:0:0:0:
411,214,128819,1,8,0:0:0:0:
265,240,128994,1,0,0:0:0:0:
468,303,129168,1,0,0:0:0:0:
410,141,129342,1,0,0:0:0:0:
331,310,129517,2,0,B|300:335|260:339|227:325,1,93.5000028533936,8|0,0:0|0:0,0:0:0:0:
257,121,129866,6,0,L|253:28,1,93.5000028533936,4|0,0:0|0:0,0:0:0:0:
149,188,130214,2,0,L|46:192,1,93.5000028533936,8|0,0:0|0:0,0:0:0:0:
221,289,130563,2,0,L|225:382,1,93.5000028533936,,,0:0:0:0:
334,224,130912,2,0,L|427:220,1,93.5000028533936,8|0,0:0|0:0,0:0:0:0:
460,218,131174,1,8,0:0:0:0:
460,218,131261,5,4,0:0:0:0:
405,127,131435,1,0,0:0:0:0:
221,289,131610,2,0,L|218:188,1,93.5000028533936,12|0,0:0|0:0,0:0:0:0:
153,64,131959,1,8,0:0:0:0:
153,64,132046,1,8,0:0:0:0:
153,64,132133,1,0,0:0:0:0:
323,25,132307,1,8,0:0:0:0:
321,62,132395,1,0,0:0:0:0:
318,99,132482,1,0,0:0:0:0:
314,136,132569,1,0,0:0:0:0:
310,169,132656,5,4,0:0:0:0:
129,220,132831,1,0,0:0:0:0:
72,47,133005,1,8,0:0:0:0:
211,133,133180,1,0,0:0:0:0:
36,281,133354,1,8,0:0:0:0:
36,281,133528,1,8,0:0:0:0:
129,111,133703,5,4,0:0:0:0:
168,255,133877,1,0,0:0:0:0:
27,160,134052,1,8,0:0:0:0:
211,133,134226,1,0,0:0:0:0:
107,317,134400,1,8,0:0:0:0:
107,317,134575,1,8,0:0:0:0:
384,260,134749,5,0,0:0:0:0:
151,188,134924,1,0,0:0:0:0:
357,52,135098,1,8,0:0:0:0:
212,258,135273,6,0,B|172:297|108:295|67:252|62:203,1,170,4|0,0:0|0:0,0:0:0:0:
85,39,135796,2,0,L|79:144,1,85,8|0,0:0|0:0,0:0:0:0:
26,312,136145,1,0,0:0:0:0:
151,188,136319,1,0,0:0:0:0:
85,39,136494,1,8,0:0:0:0:
92,265,136668,6,0,B|158:282|223:270|276:238,1,170,,,0:0:0:0:
422,185,137191,2,0,B|381:172|338:174|301:187,1,85,8|0,0:0|0:0,0:0:0:0:
261,330,137540,1,0,0:0:0:0:
374,261,137714,1,0,0:0:0:0:
241,119,137889,1,8,0:0:0:0:
422,23,138063,6,0,B|455:78|450:144|417:192,1,170,,,0:0:0:0:
217,221,138587,2,0,B|258:207|301:210|338:224,1,85,8|0,0:0|0:0,0:0:0:0:
448,291,138935,1,0,0:0:0:0:
448,291,139110,1,0,0:0:0:0:
217,221,139284,1,8,0:0:0:0:
317,31,139459,6,0,L|138:34,1,170,,,0:0:0:0:
68,172,139982,1,8,0:0:0:0:
219,108,140156,1,0,0:0:0:0:
204,304,140331,1,8,0:0:0:0:
151,161,140505,1,0,0:0:0:0:
151,161,140592,1,8,0:0:0:0:
151,161,140680,1,8,0:0:0:0:
317,31,140854,6,0,B|349:83|340:146|303:188,1,170,4|0,0:0|0:0,0:0:0:0:
140,248,141377,1,8,0:0:0:0:
323,344,141552,2,0,B|290:349|259:338|237:318,1,85,,,0:0:0:0:
486,296,141900,2,0,B|463:319|432:330|402:328,1,85,0|8,0:0|0:0,0:0:0:0:
245,158,142249,6,0,B|314:138|384:137|449:152,1,170,4|0,0:0|0:0,0:0:0:0:
486,296,142773,1,8,0:0:0:0:
256,244,142947,2,0,B|205:250|159:215|148:163|166:122,1,170,4|0,0:0|0:0,0:0:0:0:
206,3,143470,1,8,0:0:0:0:
410,127,143645,6,0,B|347:154|282:162|220:156,1,170,4|0,0:0|0:0,0:0:0:0:
213,131,144081,1,0,0:0:0:0:
179,128,144168,1,8,0:0:0:0:
145,128,144255,1,0,0:0:0:0:
111,128,144342,1,0,0:0:0:0:
166,280,144517,5,0,0:0:0:0:
199,273,144604,1,0,0:0:0:0:
232,268,144691,1,0,0:0:0:0:
265,262,144778,1,0,0:0:0:0:
298,256,144866,1,8,0:0:0:0:
334,59,145040,5,0,0:0:0:0:
345,90,145127,1,0,0:0:0:0:
354,122,145214,1,0,0:0:0:0:
363,154,145302,1,0,0:0:0:0:
372,186,145389,1,0,0:0:0:0:
181,200,145563,5,8,0:0:0:0:
188,166,145650,1,0,0:0:0:0:
191,131,145738,1,0,0:0:0:0:
194,97,145825,1,0,0:0:0:0:
198,63,145912,1,0,0:0:0:0:
298,256,146087,1,0,0:0:0:0:
89,136,146261,1,8,0:0:0:0:
124,352,146435,5,4,0:0:0:0:
124,352,146784,1,0,0:0:0:0:
305,340,146959,2,0,L|297:248,1,85,8|0,0:0|0:0,0:0:0:0:
298,256,147220,1,0,0:0:0:0:
298,256,147307,1,0,0:0:0:0:
278,106,147482,1,0,0:0:0:0:
247,120,147569,1,0,0:0:0:0:
213,124,147656,1,8,0:0:0:0:
179,115,147744,1,0,0:0:0:0:
150,94,147831,6,0,B|166:165|160:235,1,127.5,4|0,0:0|0:0,0:0:0:0:
155,265,148180,1,8,0:0:0:0:
332,188,148354,1,8,0:0:0:0:
66,92,148528,1,8,0:0:0:0:
66,92,148877,5,0,0:0:0:0:
121,145,149052,1,0,0:0:0:0:
174,202,149226,1,0,0:0:0:0:
229,259,149400,5,4,0:0:0:0:
362,40,149749,2,0,L|374:126,1,68,,,0:0:0:0:
428,168,150098,2,0,B|382:135|321:141|282:177,1,136,8|0,0:0|0:0,0:0:0:0:
361,258,150621,1,0,0:0:0:0:
294,349,150796,6,0,B|340:382|401:376|440:340,1,136,,,0:0:0:0:
422,353,151319,1,0,0:0:0:0:
351,180,151494,1,8,0:0:0:0:
274,191,151668,1,0,0:0:0:0:
197,202,151842,1,0,0:0:0:0:
119,213,152017,1,0,0:0:0:0:
42,225,152191,5,0,0:0:0:0:
285,384,152540,2,0,L|293:312,1,68,,,0:0:0:0:
341,253,152889,2,0,B|298:282|246:287|201:271,1,136,8|0,0:0|0:0,0:0:0:0:
211,274,153412,1,0,0:0:0:0:
111,125,153587,6,0,L|193:112,1,68,,,0:0:0:0:
278,188,153935,2,0,L|208:192,1,68,,,0:0:0:0:
143,282,154284,2,0,L|225:272,1,68,8|0,0:0|0:0,0:0:0:0:
244,270,154546,1,0,0:0:0:0:
277,266,154633,1,0,0:0:0:0:
310,262,154720,1,0,0:0:0:0:
343,258,154807,1,0,0:0:0:0:
467,155,154982,5,4,0:0:0:0:
427,307,155156,1,0,0:0:0:0:
264,137,155331,1,8,0:0:0:0:
232,352,155505,1,0,0:0:0:0:
416,225,155680,5,0,0:0:0:0:
264,137,155854,1,0,0:0:0:0:
442,45,156028,1,8,0:0:0:0:
218,12,156203,1,0,0:0:0:0:
332,225,156377,5,0,0:0:0:0:
378,81,156552,1,0,0:0:0:0:
349,346,156726,1,8,0:0:0:0:
264,137,156900,1,0,0:0:0:0:
444,234,157075,5,0,0:0:0:0:
235,272,157249,1,0,0:0:0:0:
312,18,157424,1,12,0:0:0:0:
332,225,157598,1,0,0:0:0:0:
119,320,157773,6,0,B|78:318|42:299|18:270,1,85,4|0,0:0|0:0,0:0:0:0:
393,320,158121,2,0,B|434:318|470:299|494:270,1,85,8|0,0:0|0:0,0:0:0:0:
125,203,158470,2,0,B|84:201|48:182|24:153,1,85,8|0,0:0|0:0,0:0:0:0:
387,203,158819,2,0,B|428:201|464:182|488:153,1,85,8|0,0:0|0:0,0:0:0:0:
242,118,159168,5,8,0:0:0:0:
281,275,159342,1,0,0:0:0:0:
318,38,159517,1,8,0:0:0:0:
160,116,159691,2,0,L|115:112,2,42.5,0|0|8,0:0|0:0|0:0,0:0:0:0:
356,206,160040,2,0,L|412:201,2,42.5,0|0|8,0:0|0:0|0:0,0:0:0:0:
196,311,160389,1,8,0:0:0:0:
196,311,160476,1,8,0:0:0:0:
196,311,160563,6,0,L|99:301,1,85,,,0:0:0:0:
111,302,160825,1,0,0:0:0:0:
111,302,160912,1,0,0:0:0:0:
212,186,161087,1,8,0:0:0:0:
110,61,161261,1,0,0:0:0:0:
110,61,161348,1,0,0:0:0:0:
110,61,161435,1,0,0:0:0:0:
309,152,161610,1,8,0:0:0:0:
189,214,161784,1,0,0:0:0:0:
278,375,161959,5,8,0:0:0:0:
111,302,162133,1,8,0:0:0:0:
343,241,162307,1,8,0:0:0:0:
135,132,162482,1,8,0:0:0:0:
423,83,162831,5,0,0:0:0:0:
325,203,163005,1,8,0:0:0:0:
295,175,163092,1,0,0:0:0:0:
259,163,163180,1,0,0:0:0:0:
221,167,163267,1,0,0:0:0:0:
184,188,163354,6,0,B|150:232|87:240|39:207|24:160,1,187.000005706787,4|8,0:0|0:0,0:0:0:0:
18,44,163877,1,0,0:0:0:0:
184,188,164052,1,0,0:0:0:0:
37,298,164226,1,0,0:0:0:0:
113,124,164400,1,8,0:0:0:0:
1,191,164575,1,0,0:0:0:0:
222,287,164749,6,0,B|317:276|409:255,1,187.000005706787,0|8,0:0|0:0,0:0:0:0:
503,188,165273,1,0,0:0:0:0:
310,68,165447,1,0,0:0:0:0:
352,186,165621,1,0,0:0:0:0:
427,4,165796,1,8,0:0:0:0:
447,122,165970,1,0,0:0:0:0:
205,161,166145,6,0,B|172:213|193:283|254:312|307:297,1,187.000005706787,0|8,0:0|0:0,0:0:0:0:
427,293,166668,1,0,0:0:0:0:
279,211,166842,1,0,0:0:0:0:
413,195,167017,1,0,0:0:0:0:
205,161,167191,1,8,0:0:0:0:
413,195,167366,1,0,0:0:0:0:
211,67,167540,6,0,L|204:165,1,93.5000028533936,4|0,0:0|0:0,0:0:0:0:
221,280,167889,1,8,0:0:0:0:
413,195,168063,1,4,0:0:0:0:
413,195,168412,1,0,0:0:0:0:
309,100,168587,1,8,0:0:0:0:
221,280,168761,1,0,0:0:0:0:
449,368,168935,6,0,B|458:334|482:309|511:297,1,93.5000028533936,,,0:0:0:0:
354,264,169284,2,0,B|363:230|387:205|416:193,1,93.5000028533936,8|0,0:0|0:0,0:0:0:0:
63,368,169633,2,0,B|54:334|30:309|1:297,1,93.5000028533936,,,0:0:0:0:
158,264,169982,2,0,B|149:230|125:205|96:193,1,93.5000028533936,8|0,0:0|0:0,0:0:0:0:
307,349,170331,5,4,0:0:0:0:
158,264,170505,1,0,0:0:0:0:
357,166,170680,1,8,0:0:0:0:
152,90,170854,1,4,0:0:0:0:
152,90,171203,2,0,L|259:81,1,93.5000028533936,0|8,0:0|0:0,0:0:0:0:
373,70,171552,1,0,0:0:0:0:
317,315,171726,5,4,0:0:0:0:
182,232,171900,1,0,0:0:0:0:
357,166,172075,1,8,0:0:0:0:
245,82,172249,1,0,0:0:0:0:
423,229,172424,2,0,B|467:236|509:217|535:185,1,93.5000028533936,,,0:0:0:0:
182,232,172773,2,0,B|138:239|96:220|70:188,1,93.5000028533936,8|0,0:0|0:0,0:0:0:0:
305,31,173121,6,0,B|326:100|324:169|304:232,1,187.000005706787,4|8,0:0|0:0,0:0:0:0:
237,336,173645,1,0,0:0:0:0:
204,331,173732,1,0,0:0:0:0:
171,327,173819,6,0,L|104:316,1,46.7500014266968,,,0:0:0:0:
52,236,173994,2,0,L|112:225,1,46.7500014266968,,,0:0:0:0:
221,193,174168,1,8,0:0:0:0:
266,182,174255,1,0,0:0:0:0:
312,187,174342,1,0,0:0:0:0:
354,208,174430,1,0,0:0:0:0:
386,240,174517,6,0,B|399:158|394:78,1,140.25000428009,4|0,0:0|0:0,0:0:0:0:
391,60,174866,1,8,0:0:0:0:
255,101,175040,1,0,0:0:0:0:
436,182,175214,1,0,0:0:0:0:
296,301,175389,1,0,0:0:0:0:
255,101,175563,1,8,0:0:0:0:
386,240,175738,1,0,0:0:0:0:
169,133,175912,6,0,B|150:79|178:19|236:-1|284:14,1,187.000005706787,0|8,0:0|0:0,0:0:0:0:
391,60,176435,1,0,0:0:0:0:
169,133,176610,1,0,0:0:0:0:
297,87,176784,1,0,0:0:0:0:
285,265,176959,1,8,0:0:0:0:
169,133,177133,1,0,0:0:0:0:
378,235,177307,6,0,B|396:290|368:349|313:372|263:361,1,187.000005706787,0|8,0:0|0:0,0:0:0:0:
151,279,177831,1,0,0:0:0:0:
255,101,178005,1,0,0:0:0:0:
285,265,178180,1,0,0:0:0:0:
57,211,178354,1,8,0:0:0:0:
183,301,178528,1,0,0:0:0:0:
274,62,178703,6,0,B|294:128|287:195|259:252,1,187.000005706787,4|8,0:0|0:0,0:0:0:0:
146,370,179226,1,0,0:0:0:0:
363,353,179400,2,0,B|320:364|276:357|240:338,1,93.5000028533936,,,0:0:0:0:
189,222,179749,1,8,0:0:0:0:
189,222,179837,1,0,0:0:0:0:
189,222,179924,1,0,0:0:0:0:
274,62,180098,5,4,0:0:0:0:
274,62,180447,2,0,B|316:46|360:52|394:74,1,93.5000028533936,8|0,0:0|0:0,0:0:0:0:
193,148,180796,1,0,0:0:0:0:
216,12,180970,1,0,0:0:0:0:
322,150,181145,2,0,B|330:194|317:236|290:267,1,93.5000028533936,8|0,0:0|0:0,0:0:0:0:
91,360,181494,6,0,B|45:302|36:227|59:164,1,187.000005706787,4|8,0:0|0:0,0:0:0:0:
107,59,182017,1,0,0:0:0:0:
219,210,182191,1,0,0:0:0:0:
224,91,182366,1,0,0:0:0:0:
178,287,182540,1,8,0:0:0:0:
344,194,182714,1,0,0:0:0:0:
344,194,182802,1,8,0:0:0:0:
344,194,182889,6,0,B|383:195|420:186|453:169,1,93.5000028533936,4|0,0:0|0:0,0:0:0:0:
168,194,183238,2,0,B|129:195|92:186|59:169,1,93.5000028533936,8|0,0:0|0:0,0:0:0:0:
340,283,183587,2,0,B|379:284|416:275|449:258,1,93.5000028533936,,,0:0:0:0:
164,283,183936,2,0,B|125:284|88:275|55:258,1,93.5000028533936,8|0,0:0|0:0,0:0:0:0:
257,107,184284,5,8,0:0:0:0:
257,107,185156,2,0,L|248:173,1,42.5,,,0:0:0:0:
232,260,185331,1,8,0:0:0:0:
180,47,185680,6,0,B|213:4|272:-7|320:20|342:61,1,170,4|8,0:0|0:0,0:0:0:0:
408,146,186203,1,0,0:0:0:0:
242,189,186377,2,0,B|239:154|248:120|264:92,1,85,,,0:0:0:0:
408,146,186726,1,8,0:0:0:0:
314,303,186900,6,0,B|272:340|213:345|165:318|141:277,1,170,,,0:0:0:0:
43,182,187424,2,0,L|40:279,1,85,8|0,0:0|0:0,0:0:0:0:
159,182,187773,2,0,L|162:89,1,85,,,0:0:0:0:
56,42,188121,1,8,0:0:0:0:
111,249,188296,6,0,B|154:279|213:267|244:220|239:174,1,170,,,0:0:0:0:
168,30,188819,1,8,0:0:0:0:
297,125,188994,1,0,0:0:0:0:
159,182,189168,1,0,0:0:0:0:
159,182,189342,1,0,0:0:0:0:
257,45,189517,1,8,0:0:0:0:
365,263,189691,6,0,B|364:176|374:92,1,170,4|0,0:0|0:0,0:0:0:0:
267,273,190214,2,0,B|223:257|176:260,1,85,8|0,0:0|0:0,0:0:0:0:
45,350,190563,2,0,B|88:363|132:359,1,85,,,0:0:0:0:
328,340,190912,1,8,0:0:0:0:
221,127,191087,6,0,B|183:86|118:87|78:132|76:182,1,170,4|0,0:0|0:0,0:0:0:0:
267,273,191610,2,0,B|301:272|329:252|342:223,1,85,8|0,0:0|0:0,0:0:0:0:
161,186,191959,1,0,0:0:0:0:
185,349,192133,1,0,0:0:0:0:
2,260,192307,1,8,0:0:0:0:
244,192,192482,6,0,L|431:182,1,170,4|0,0:0|0:0,0:0:0:0:
312,286,193005,1,8,0:0:0:0:
436,94,193180,2,0,B|490:108|523:162|511:219|475:252,1,170,4|0,0:0|0:0,0:0:0:0:
312,286,193703,1,8,0:0:0:0:
273,37,193877,5,4,0:0:0:0:
273,37,194226,1,0,0:0:0:0:
183,202,194400,2,0,L|276:186,1,85,8|0,0:0|0:0,0:0:0:0:
396,296,194749,2,0,L|280:281,1,85,,,0:0:0:0:
176,367,195098,1,8,0:0:0:0:
13,230,195273,6,0,L|38:43,1,170,4|0,0:0|0:0,0:0:0:0:
112,154,195796,1,8,0:0:0:0:
36,316,195970,1,0,0:0:0:0:
36,316,196057,1,0,0:0:0:0:
36,316,196145,1,0,0:0:0:0:
223,250,196319,1,0,0:0:0:0:
248,250,196406,1,0,0:0:0:0:
273,250,196494,1,8,0:0:0:0:
298,251,196581,1,0,0:0:0:0:
323,252,196668,1,0,0:0:0:0:
348,252,196755,1,0,0:0:0:0:
373,254,196842,6,0,B|422:233|444:174|418:123|374:104,1,170,4|8,0:0|0:0,0:0:0:0:
219,81,197366,1,0,0:0:0:0:
223,250,197540,2,0,L|220:348,1,85,,,0:0:0:0:
314,209,197889,1,8,0:0:0:0:
278,383,198063,6,0,L|108:369,1,170,4|0,0:0|0:0,0:0:0:0:
25,236,198587,1,8,0:0:0:0:
170,301,198761,1,0,0:0:0:0:
67,362,198935,1,0,0:0:0:0:
67,362,199110,1,0,0:0:0:0:
243,267,199284,1,8,0:0:0:0:
174,138,199459,1,0,0:0:0:0:
345,27,199633,6,0,B|359:122|352:215,1,170,4|8,0:0|0:0,0:0:0:0:
181,217,200156,2,0,B|167:122|174:29,1,170,,,0:0:0:0:
256,0,200680,1,8,0:0:0:0:
360,153,200854,5,4,0:0:0:0:
360,153,201203,1,0,0:0:0:0:
181,217,201377,1,8,0:0:0:0:
358,75,201552,2,0,B|414:74|459:127|445:190|402:218,1,170,4|0,0:0|0:0,0:0:0:0:
181,217,202075,1,8,0:0:0:0:
251,33,202249,5,4,0:0:0:0:
251,33,202598,1,0,0:0:0:0:
285,156,202773,1,8,0:0:0:0:
144,147,202947,1,0,0:0:0:0:
314,225,203121,5,8,0:0:0:0:
125,259,203296,1,0,0:0:0:0:
374,275,203470,1,8,0:0:0:0:
198,337,203645,1,0,0:0:0:0:
285,156,203819,5,8,0:0:0:0:
253,276,203994,1,0,0:0:0:0:
195,85,204168,1,8,0:0:0:0:
186,209,204342,1,0,0:0:0:0:
292,136,204517,5,8,0:0:0:0:
247,297,204691,1,0,0:0:0:0:
187,63,204866,1,8,0:0:0:0:
389,245,205040,6,0,L|393:92,1,127.500004863739,4|0,0:0|0:0,0:0:0:0:
292,136,205563,1,0,0:0:0:0:
292,136,205738,1,0,0:0:0:0:
306,259,205912,1,0,0:0:0:0:
306,259,206087,1,0,0:0:0:0:
170,213,206261,1,0,0:0:0:0:
170,213,206435,1,0,0:0:0:0:
364,117,206610,5,8,0:0:0:0:
197,59,206784,1,0,0:0:0:0:
197,59,206871,1,8,0:0:0:0:
197,59,206959,1,8,0:0:0:0:
213,282,207133,1,0,0:0:0:0:
270,138,207307,2,0,L|305:134,3,21.2500008106232,,,0:0:0:0:
109,258,207656,5,8,0:0:0:0:
337,259,207831,1,4,0:0:0:0:
256,192,207918,12,0,210796,0:0:0:0:
